..:: Peliculas RECOMENDADAS ::..


El Origen 3D [1080p] [SBS] [Español Latino - Castellano - Ingles]

Dom Cobb (DiCaprio) es un experto en el arte de apropiarse, durante el sueño, de los secretos del subconsciente ajeno. La extraña habilidad de Cobb le ha convertido en un hombre muy cotizado en el mundo del espionaje, pero también lo ha condenado a ser un fugitivo y, por consiguiente, a renunciar a llevar una vida normal. Su única oportunidad para cambiar de vida será hacer exactamente lo contrario de lo que ha hecho siempre: la incepción, que consiste en implantar una idea en el subconsciente en lugar de sustraerla. Sin embargo, su plan se complica debido a la intervención de alguien que parece predecir cada uno de sus movimientos, alguien a quien sólo Cobb podrá descubrir.



General

Complete name : files/Inception.3D.BDRIp.1080p.Trial.MauricioDVD.mkv
Format : Matroska
File size : 12.7 GiB
Duration : 2h 28mn
Overall bit rate : 12.3 Mbps
Movie name : Potato
Encoded date : UTC 2011-09-02 09:35:19
Writing application : mkvmerge v4.9.1 ('Ich will') built on Jul 11 2011 23:53:15
Writing library : libebml v1.2.1 + libmatroska v1.1.1

Video

ID : 1
Format : AVC
Format/Info : Advanced Video Codec
Format profile : High@L5.1
Format settings, CABAC : Yes
Format settings, ReFrames : 2 frames
Muxing mode : Container profile=Unknown@5.1
Codec ID : V_MPEG4/ISO/AVC
Duration : 2h 28mn
Width : 1 920 pixels
Height : 1 080 pixels
Display aspect ratio : 16:9
Frame rate : 23.976 fps
Color space : YUV
Chroma subsampling : 4:2:0
Bit depth : 8 bits
Scan type : Progressive
Title : 3D SBS By Ro_dri
Writing library : x264 core
Language : English
Color primaries : BT.709-5, BT.1361, IEC 61966-2-4, SMPTE RP177
Transfer characteristics : BT.709-5, BT.1361
Matrix coefficients : BT.709-5, BT.1361, IEC 61966-2-4 709, SMPTE RP177

Audio #1

ID : 2
Format : AC-3
Format/Info : Audio Coding 3
Mode extension : CM (complete main)
Codec ID : A_AC3
Duration : 2h 28mn
Bit rate mode : Constant
Bit rate : 640 Kbps
Channel(s) : 6 channels
Channel positions : Front: L C R, Side: L R, LFE
Sampling rate : 48.0 KHz
Bit depth : 16 bits
Stream size : 678 MiB (5%)
Title : Castellano
Language : Spanish

Audio #2

ID : 3
Format : AC-3
Format/Info : Audio Coding 3
Mode extension : CM (complete main)
Codec ID : A_AC3
Duration : 2h 28mn
Bit rate mode : Constant
Bit rate : 640 Kbps
Channel(s) : 6 channels
Channel positions : Front: L C R, Side: L R, LFE
Sampling rate : 48.0 KHz
Bit depth : 16 bits
Stream size : 678 MiB (5%)
Title : Latino
Language : Spanish

Audio #3

ID : 4
Format : DTS
Format/Info : Digital Theater Systems
Format profile : MA
Codec ID : A_DTS
Duration : 2h 28mn
Bit rate mode : Variable
Channel(s) : 6 channels
Channel positions : Front: L C R, Side: L R, LFE
Sampling rate : 48.0 KHz
Bit depth : 24 bits
Title : DTS HD
Language : English

Text #1

ID : 5
Format : UTF-8
Codec ID : S_TEXT/UTF8
Codec ID/Info : UTF-8 Plain Text
Title : Forzados
Language : Spanish

Text #2

ID : 6
Format : UTF-8
Codec ID : S_TEXT/UTF8
Codec ID/Info : UTF-8 Plain Text
Title : Completos
Language : Spanish

 
 

AVISAR EN COMENTARIO SI SE CAE ALGUN LINK

(Clic En La Imagen para Descargar)

(Clic En La Imagen para Descargar)
 
 (Clic En La Imagen para Descargar)

 
AGRADECER ES COMENTAR

Que son los links intercambiables? Son los mismos archivos, de películas en este caso, en distintos servidores. Cual es su función principal? Reducir el tiempo de espera entre descarga y descarga, y además por si falla algún servidor, tienen otro a su disposición. Ejemplo: Pueden descargar la parte 1 de Uploadstation, la 2 de Fileserve, la 3 de Bitshare, la 4 de Filekeen, la 5 de Wupload, etc. intercalando las descargas. Es una muy buena opción para los que no disponen de cuentas Premium y además para que no esten esperando tanto tiempo en un solo servidor. De esta manera tendrán la peli más rápido y además para su mayor comodidad habrá pocos links para descargar (500 MB por Parte!!!!!) así pueden hacer lo que les expliqué en el ejemplo (descargar un link por cada servidor)

11 comentarios:

Anónimo dijo...

todos los link estan caidos..ninguno funciona

Anónimo dijo...

Tampoco funciona la pagina nueva

Anónimo dijo...

Gаmmal nintendo wii u rostar aldrig rofl ;)
My website playstation 3 adapters

Anónimo dijo...

Todos los links me llevan a descargar un tal ilivid aunque le de SKIP ADD ya no se que hacer. AYUDA PORFA

Anónimo dijo...

bookmarked!!, I like your website!

Feel free to surf to my web-site: how to buy a car
Feel free to visit my homepage : how to buy a car,buying a car,buy a car,how to buy a car bad credit,buying a car bad credit,buy a car bad credit,how to buy a car with bad credit,buying a car with bad credit,buy a car with bad credit,bad credit car loans,car loans bad credit,auto loans bad credit,bad credit auto loans,buying a car bad credit loans,bad credit loans cars,buying a car and bad credit,how to buy a car on bad credit,buying a car on bad credit,loans for cars with bad credit,auto loans for bad credit,buying a car with bad credit,how to buy a car with bad credit

Anónimo dijo...

A gooԁ nіntenԁο 3ds maгcheѕ
οn its stomаch lol ;)
My blog ... Sony PSP Go

Anónimo dijo...

Μіghty Nintenԁo DS Lite faгaway from tіnу little sources
multiply rofl :D
Look into my website : XB720

Anónimo dijo...

sonу ρlaуstation 3 får ta sаkеn i еgnа händer
LOL

Here iѕ my weblog :: cheat codes grand theft auto iv ps3

Anónimo dijo...

All the Χbοx foг himsеlf, and thе Devil take the hindmost lmao :-)

my blog post: Sony PSPGo

Anónimo dijo...

AЅCII ѕtupid inquiry, get sіlly xbox720.
.. lol

Look at my ωeb blog; DS

Anónimo dijo...

Asking questions are in fact pleasant thing if you are
not understanding something fully, however this paragraph gives pleasant understanding yet.


Feel free to surf to my site: acoustic guitar a chord

Publicar un comentario en la entrada

 
Design by Wordpress Theme | Bloggerized by Free Blogger Templates | coupon codes