..:: Peliculas RECOMENDADAS ::..


Linterna Verde 3D [2011] [1080p] [SBS] [Español Latino - Ingles]

Hal Jordan (Ryan Reynolds), un piloto que prueba prototipos, adquiere superpoderes que le son concedidos por un extraterrestre moribundo. Gracias a ello es reclutado para una misión de paz intergaláctica... Adaptación a imagen real del popular personaje de DC Comics, Linterna Verde.



Título: Linterna Verde.
Título original: Green Lantern.
Año: 2011
País: Estados Unidos (USA)
Director: Martin Campbell.
Productora: Warner Bros. Pictures
Guión: Greg Berlanti, Marc Guggenheim & Michael Green.
Reparto: Ryan Reynolds, Blake Lively, Peter Sarsgaard, Tim Robbins, Mark Strong, Taika Waititi, Temuera Morrison, Angela Bassett, Jay O. Sanders, Jon Tenney.

 

General

Complete name : files/Linterna.verde.Dual.1080p.2011.MauricioDVD.mkv
Format : Matroska
File size : 10.6 GiB
Duration : 1h 54mn
Overall bit rate : 13.4 Mbps
Movie name : The Green Lantern 2011 3D SBS Dual -Montaje Por -Andres.sito1992-
Encoded date : UTC 2011-10-04 04:40:19
Writing application : mkvmerge v3.4.0 ('Rapunzel') built on May 15 2010 09:38:20
Writing library : libebml v0.8.0 + libmatroska v0.9.0

Video

ID : 1
Format : AVC
Format/Info : Advanced Video Codec
Format profile : High@L4.1
Format settings, CABAC : Yes
Format settings, ReFrames : 2 frames
Muxing mode : Container profile=Unknown@4.1
Codec ID : V_MPEG4/ISO/AVC
Duration : 1h 54mn
Bit rate mode : Variable
Bit rate : 12.2 Mbps
Maximum bit rate : 30.0 Mbps
Width : 1 920 pixels
Height : 1 080 pixels
Display aspect ratio : 16:9
Frame rate : 23.976 fps
Color space : YUV
Chroma subsampling : 4:2:0
Bit depth : 8 bits
Scan type : Progressive
Bits/(Pixel*Frame) : 0.245
Stream size : 9.72 GiB (91%)
Title : The Green Lantern 2011 3D SBS Dual -Montaje Por -Andres.sito1992-
Writing library : x264 core
Language : Spanish
Color primaries : BT.709-5, BT.1361, IEC 61966-2-4, SMPTE RP177
Transfer characteristics : BT.709-5, BT.1361
Matrix coefficients : BT.709-5, BT.1361, IEC 61966-2-4 709, SMPTE RP177

Audio #1

ID : 2
Format : AC-3
Format/Info : Audio Coding 3
Mode extension : CM (complete main)
Codec ID : A_AC3
Duration : 1h 54mn
Bit rate mode : Constant
Bit rate : 448 Kbps
Channel(s) : 6 channels
Channel positions : Front: L C R, Side: L R, LFE
Sampling rate : 48.0 KHz
Bit depth : 16 bits
Stream size : 365 MiB (3%)
Title : Audio Latino AC3
Language : Spanish

Audio #2

ID : 3
Format : AC-3
Format/Info : Audio Coding 3
Mode extension : CM (complete main)
Codec ID : A_AC3
Duration : 1h 54mn
Bit rate mode : Constant
Bit rate : 448 Kbps
Channel(s) : 6 channels
Channel positions : Front: L C R, Side: L R, LFE
Sampling rate : 48.0 KHz
Bit depth : 16 bits
Stream size : 365 MiB (3%)
Title : Audio AC3 Ingles
Language : English

Text #1

ID : 4
Format : UTF-8
Codec ID : S_TEXT/UTF8
Codec ID/Info : UTF-8 Plain Text
Title : Subtitulos Castellano Forzados
Language : Spanish

Text #2

ID : 5
Format : UTF-8
Codec ID : S_TEXT/UTF8
Codec ID/Info : UTF-8 Plain Text
Title : Subtitulos Castellano Completos
Language : Spanish

 
 

AVISAR EN COMENTARIO SI SE CAE ALGUN LINK

(Clic En La Imagen para Descargar)
(Clic En La Imagen para Descargar)
 
 (Clic En La Imagen para Descargar)


NO TE OLVIDES DE COMENTAR

Que son los links intercambiables? Son los mismos archivos, de películas en este caso, en distintos servidores. Cual es su función principal? Reducir el tiempo de espera entre descarga y descarga, y además por si falla algún servidor, tienen otro a su disposición. Ejemplo: Pueden descargar la parte 1 de Uploadstation, la 2 de Fileserve, la 3 de Bitshare, la 4 de Filekeen, la 5 de Wupload, etc. intercalando las descargas. Es una muy buena opción para los que no disponen de cuentas Premium y además para que no esten esperando tanto tiempo en un solo servidor. De esta manera tendrán la peli más rápido y además para su mayor comodidad habrá pocos links para descargar (500 MB por Parte!!!!!) así pueden hacer lo que les expliqué en el ejemplo (descargar un link por cada servidor)

2 comentarios:

Anónimo dijo...

todos los links caidos

Anónimo dijo...

todos los link estan caidos..ninguno funciona

Publicar un comentario en la entrada

 
Design by Wordpress Theme | Bloggerized by Free Blogger Templates | coupon codes